Torrent Details

Photo Not Available
The Martian (2015) (Extended) x 1600 (2160p) HDR 5 1 x265 10bit Phun Psyz
Size5.5 GB in 1 file
ReleasesAdded on 08/24/18 at 6:47am into the Movies category by Unknown.
Status0 seeds & 0 peers.
Hash52fd5f0274bec2004c45b85f00070e7fbe065c2d
Rating
  • YourBT Visitors

Status This torrent has been verified.
*

Torrent Description

www.imdb.com/title/tt3659388/

An astronaut becomes stranded on Mars after his team assume him dead, and must rely on his ingenuity to find a way to signal to Earth that he is alive.

Source: HDR



Format : Matroska
Format version : Version 4 / Version 2
File size : 5.46 GiB
Duration : 2 h 31 min
Overall bit rate : 5 163 kb/s

Video
ID : 1
Format : HEVC
Format/Info : High Efficiency Video Coding
Format profile : Main [email protected]@High
Codec ID : V_MPEGH/ISO/HEVC
Duration : 2 h 31 min
Bit rate : 4 740 kb/s
Width : 3 840 pixels
Height : 1 600 pixels
Display aspect ratio : 2.40:1
Frame rate mode : Constant
Frame rate : 23.976 (24000/1001) FPS
Color space : YUV
Chroma subsampling : 4:2:0
Bit depth : 10 bits
Bits/(Pixel*Frame) : 0.032
Stream size : 5.01 GiB (92%)
Writing library : x265 2.6:[Windows][GCC 7.1.0][64 bit] 10bit

Audio
ID : 2
Format : AC-3
Format/Info : Audio Coding 3
Commercial name : Dolby Digital
Codec ID : A_AC3
Duration : 2 h 31 min
Bit rate mode : Constant
Bit rate : 320 kb/s
Channel(s) : 6 channels
Channel positions : Front: L C R, Side: L R, LFE
Sampling rate : 48.0 kHz
Frame rate : 31.250 FPS (1536 SPF)
Bit depth : 16 bits
Compression mode : Lossy
Stream size : 346 MiB (6%)
Title : Surround
Language : English

Text
Language : English
Language : English
Language : Spanish
Language : French
Language : English
Language : Spanish
Language : French
Default : No
Forced : No



Similar Torrents

No Similar Torrents Found

If we find similar torrents, we normally show them right here. We couldn't find anything for "".

Torrent Trackers

Files inside this torrent

FILENAMESIZE
icon The Martian (2015) (Extended) x 1600 (2160p) HDR 5.1 x265 10bit Phun Psyz.mkv5.5 GB